#1 23-08-2010 21:13:10

trpost
Ospite

Formato video per autoradio

Buonasera a tutti,

oggi ho acquistato un autoradio con touchscreen da 3.5" che permette la visualizzazione di video mpeg4.

Ho tentato di convertire con ffmpeg un video preso da youtube ma con scarsi risultati, nel senso che il video ottenuto è troppo grande per l'autoradio

$ ffmpeg -i input.mp4 output.avi -s 176x144 -aspect 4:3
Input #0, mov,mp4,m4a,3gp,3g2,mj2, from 'Vb5yaeZySok.mp4':
  Metadata:
    major_brand     : mp42
    minor_version   : 0
    compatible_brands: isomavc1mp42
  Duration: 00:06:59.87, start: 0.000000, bitrate: 2102 kb/s
    Stream #0.0(und): Audio: aac, 44100 Hz, stereo, s16, 123 kb/s
    Stream #0.1(und): Video: h264, yuv420p, 1280x720 [PAR 1:1 DAR 16:9], 1976 kb/s, 24 fps, 24 tbr, 24k tbn, 48 tbc
Output #0, avi, to 'Alejandro.avi':
  Metadata:
    ISFT            : Lavf52.73.0
    Stream #0.0(und): Video: mpeg4, yuv420p, 1280x720 [PAR 1:1 DAR 16:9], q=2-31, 200 kb/s, 24 tbn, 24 tbc
    Stream #0.1(und): Audio: mp2, 44100 Hz, stereo, s16, 64 kb/s
Stream mapping:
  Stream #0.1 -> #0.0
  Stream #0.0 -> #0.1

$ ffmpeg -i input.mp4  -vf "scale=200:100" output.avi
Input #0, mov,mp4,m4a,3gp,3g2,mj2, from 'Vb5yaeZySok.mp4':
  Metadata:
    major_brand     : mp42
    minor_version   : 0
    compatible_brands: isomavc1mp42
  Duration: 00:06:59.87, start: 0.000000, bitrate: 2102 kb/s
    Stream #0.0(und): Audio: aac, 44100 Hz, stereo, s16, 123 kb/s
    Stream #0.1(und): Video: h264, yuv420p, 1280x720 [PAR 1:1 DAR 16:9], 1976 kb/s, 24 fps, 24 tbr, 24k tbn, 48 tbc
[scale @ 0x9ff3d90] w:1280 h:720 fmt:yuv420p -> w:200 h:100 fmt:yuv420p flags:0x4
Output #0, avi, to 'Alejandro.avi':
  Metadata:
    ISFT            : Lavf52.73.0
    Stream #0.0(und): Video: mpeg4, yuv420p, 200x100 [PAR 1:1 DAR 2:1], q=2-31, 200 kb/s, 24 tbn, 24 tbc
    Stream #0.1(und): Audio: mp2, 44100 Hz, stereo, s16, 64 kb/s
Stream mapping:
  Stream #0.1 -> #0.0
  Stream #0.0 -> #0.1

Cosa sbaglio ?
Grazie.

#2 25-08-2010 01:28:22

romulus
Pinguino avanzato
Da Roma
Registrato: 25-06-2010
Messaggi: 245

Re: Formato video per autoradio

ad occhio direi che il file di input è già nel formato che
ti interessa, almeno secondo "download helper"

https://addons.mozilla.org/it/firefox/addon/3006/

visto che i file che ti interessano provengono da youtube
forse ti converrebbe usarlo direttamente.

ciao
R.


Assioma di R.: Ci sono più bit in un byte di quanti tu ne riesca a contare.
Avatar by manuoceane from Tux Factory

Non in linea

#3 25-08-2010 12:14:11

MarioS
Amministratore
Da Trieste
Registrato: 31-12-2005
Messaggi: 10'620
Sito web

Re: Formato video per autoradio

Scusa non ho capito. I video su youtube sono in formato flash.
Per l'autoradio di serve mpeg4.
Perchè fai una conversione da mpeg4 ad avi?


Ciao da me che sono io!!!!!
E...Partecipa al Fedora Project

Non in linea

#4 25-08-2010 18:12:08

trpost
Ospite

Re: Formato video per autoradio

I file da youtube sono codificati come mp4.
L'intenzione è quella di riconvertirli in formato mpeg4 (che dovrebbe essere l'.avi) con un formato video adatto ad uno schermo di 3.5".

Oggi ho provato aggiungendo l'opzione -vcodec ma ancora viene fuori un filmato non supportato:

$ ffmpeg -i input.mp4 -vcodec mpeg4  -s qcif -aspect 4:3 -r 25 -qmin 3 -qmax 9 output.avi

#5 26-08-2010 21:43:35

romulus
Pinguino avanzato
Da Roma
Registrato: 25-06-2010
Messaggi: 245

Re: Formato video per autoradio

ho fatto delle prove con "download helper" per intercettare
i comandi che usa:

gli ho dato in pasto questo video:

http://www.youtube.com/watch?v=VZbM_MIz4RM&feature=related

per prima cosa gli ho detto di scaricarlo e convertirlo in
MPEG-4 (mp4)

poi gli ho detto di convertire il file mp4 in avi (mpeg4+mp3)

ffmpeg -i Pink-Floyd.flv -y -v 0 -ac 2 -acodec libmp3lame -ar 44100 -f avi -vcodec mpeg4 Pink-Floyd.mp4

ffmpeg -i Pink-Floyd.mp4 -y -v 0 -acodec libmp3lame -f avi -vcodec mpeg4 Pink-Floyd.avi


Assioma di R.: Ci sono più bit in un byte di quanti tu ne riesca a contare.
Avatar by manuoceane from Tux Factory

Non in linea

#6 27-08-2010 14:09:57

trpost
Ospite

Re: Formato video per autoradio

per prima cosa gli ho detto di scaricarlo e convertirlo in
MPEG-4 (mp4)


Allora forse sto facendo confusione.

Un file mp4 è già un file mpeg4 ?
Convertirlo in avi ne cambierebbe quindi la compatibilità con dispositivi che leggono i file mpeg4 ?

#7 27-08-2010 21:24:15

romulus
Pinguino avanzato
Da Roma
Registrato: 25-06-2010
Messaggi: 245

Re: Formato video per autoradio

Confuzione per confusione allora... :-)

http://it.wikipedia.org/wiki/MPEG-4

questo creda faccia riferimento al file che vorresti ottenere

http://en.wikipedia.org/wiki/MPEG-4_Part_14

avi più che altro è un contenitore di formati

http://en.wikipedia.org/wiki/List_of_file_formats

http://en.wikipedia.org/wiki/Audio_Video_Interleave

forse il lettore che vuoi usare non è così nuovo come sembra, cos'è esattamente?

prova ad usare il codec video "libxvid" ed eventualmente a
forzare il codec audio così come fa "download helper"

ffmpeg -i file.mp4 -vcodec libxvid [-acodec libmp3lame] ...

ciao
R.


Assioma di R.: Ci sono più bit in un byte di quanti tu ne riesca a contare.
Avatar by manuoceane from Tux Factory

Non in linea

Piè di pagina